#TITLE:FINAL AUDITION EPISODE 2-2;
#SUBTITLE:;
#ARTIST:Yahpp;
#TITLETRANSLIT:;
#SUBTITLETRANSLIT:;
#ARTISTTRANSLIT:;
#CREDIT:;
#BANNER:french.jpg;
#BACKGROUND:french-bg.jpg;
#LYRICSPATH:;
#CDTITLE:dark.gif;
#MUSIC:french.mp3;
#OFFSET:0.000;
#SAMPLESTART:29.968;
#SAMPLELENGTH:29.980;
#SELECTABLE:YES;
#BPMS:0.000=200.080,158.250=150.060,162.750=200.080,227.750=100.040,229.750=200.080,233.750=100.040,235.750=200.080;
#STOPS:162.750=0.300
;
#BGCHANGES:;
// cache tags:
#FIRSTBEAT:25.000;
#LASTBEAT:319.833;
#SONGFILENAME:Songs/Music V.I.P ^_^/FAEP2-2/french.sm;
#HASMUSIC:1;
#HASBANNER:1;
#MUSICLENGTH:103.407;
// end cache tags

//---------------dance-single - ----------------
#NOTES:
     dance-single:
     :
     Challenge:
     15:
     1.000,1.000,1.000,0.996,1.000,829.000,173.000,103.000,0.000,48.000:
0000
0000
0000
0000
,
0000
0000
0000
0000
,
0000
0000
0000
0000
,
0000
0000
0000
0000
,
0000
0000
0000
0000
,
0000
0000
0000
0000
,
0000
0220
0000
0000
,
0000
0000
0000
0000
0000
0000
0000
0000
0000
1331
0110
1001
,
0220
0000
0000
0000
0000
0000
0000
0000
0330
0110
1001
0110
,
2002
0000
0000
0000
0000
0000
0000
0000
0003
3011
1100
0011
,
2200
0000
0300
3101
1010
0101
2020
0000
3000
1130
0011
1100
,
0022
0000
0000
0000
0000
0000
0000
0000
0003
1031
0110
1001
,
0220
0000
0330
1010
0101
1010
0202
0000
0300
0113
1001
0110
,
2002
0000
0000
3113
1001
0110
2002
0000
0003
3011
1100
0011
,
2200
0000
3310
0000
1000
0000
0100
0000
1000
0000
0010
0000
,
0100
0010
1000
0001
0010
0000
0000
0000
0100
0000
0000
1000
0001
0010
0001
1000
,
0010
0100
1000
0000
0010
0000
0000
1000
0100
0001
0100
1000
0000
0010
0001
0100
,
0010
0001
0010
1000
0001
2200
0000
0000
0000
3322
0000
0033
0000
0000
0100
0010
,
1000
0100
0001
0010
0100
1000
0010
0001
0100
0010
1000
0100
0001
0010
0100
0001
,
0010
0001
0100
0010
0100
2020
0000
0000
0030
3220
0000
0330
0000
0000
0001
0010
,
0001
0100
0010
1000
0100
0001
0010
0001
1000
0100
0001
0010
1000
0001
0100
0010
,
0100
0001
0100
1000
0001
2020
0000
0000
0030
3220
0000
0331
0010
0100
0001
0010
,
0100
0010
0100
1000
0100
0010
0001
1000
0100
0010
0100
0010
0001
0100
0010
1000
,
0001
0200
0000
0300
0000
0022
0000
0000
0030
2023
0000
3230
0000
0301
0010
0001
,
1000
0010
0100
0001
0100
0010
0100
0001
0010
1000
0001
1000
0010
0100
0010
1000
,
0001
0100
0010
0001
0100
1000
0010
0100
0001
0120
1000
0001
1000
0100
1000
0001
,
1000
0231
1000
0010
1000
0001
1000
0010
1000
0312
1000
0010
1000
0100
1000
0010
,
1000
0213
0001
0010
0001
1000
0001
0010
0001
2310
0100
0010
0100
0001
0100
0010
,
0100
3012
1000
0010
1000
0100
1000
0010
1000
0213
0001
0010
0001
1000
0001
0010
,
0001
2310
0100
0010
0100
0001
0100
0010
0100
3012
1000
0010
1000
0100
1000
0010
,
1000
0213
1000
0001
1000
0010
1000
0001
1000
0321
1000
0001
1000
0100
1000
0001
,
1000
0231
0000
1000
0000
0001
0000
1000
0000
0301
0010
0100
0001
0010
0001
1000
,
0010
0100
0010
0001
0100
0010
1000
0100
1000
0010
1000
0001
0010
1000
0010
1000
,
0001
0200
0000
0000
0000
2000
0000
0000
0000
3311
0100
0010
1000
0110
0001
0010
,
0100
0011
1000
0100
0001
1010
0100
1000
0001
0110
1000
0100
1000
0011
0100
0010
,
0100
1001
0100
0010
0001
1010
0100
0010
0001
1100
0010
0100
1000
0101
0010
0100
,
1000
0011
1000
0100
0010
1001
0100
0010
0001
1010
0100
0010
1000
0102
0010
0100
,
1000
0113
0001
0010
0100
2001
0100
0010
3001
1100
0010
0100
1000
0011
0100
0010
,
0001
0110
0001
0010
0100
0011
0100
0010
0001
1100
0010
0100
1000
0011
1000
0100
,
1000
0110
0001
0100
0001
1010
0100
0010
1000
0011
0000
0101
0000
1001
0000
1010
,
0000
1100
0000
0110
0000
0011
0000
0101
0000
0110
0000
0011
0000
0000
0000
1002
,
0010
0100
0010
1000
0010
0100
0010
2103
0010
0001
0010
0100
0010
0001
0010
3201
,
0010
0001
0010
1000
0010
0001
0010
2301
0100
0001
0100
0010
0100
0001
0100
3021
,
1000
0001
1000
0100
1000
0001
1000
0231
0010
0001
0010
1000
0010
0001
0010
2301
,
0100
0001
0100
0010
0100
0001
0100
3021
1000
0001
1000
0100
1000
0001
1000
0231
,
0010
0001
0010
1000
0010
0001
0010
2301
0010
0100
0000
0001
0000
0100
0000
3010
,
0001
0010
0001
0010
0100
0010
0100
0010
0100
1000
0100
1000
0100
1000
0100
2001
,
0100
0010
0100
0001
0100
0010
0100
3012
0100
1000
0100
0010
0100
1000
0100
1023
,
0100
1000
0100
0001
0100
1000
0100
1032
0010
1000
0010
0100
0010
1000
0010
1203
,
0001
1000
0001
0010
0001
1000
0001
1320
0100
1000
0100
0001
0100
1000
0100
1032
,
0010
1000
0010
0100
0010
1000
0010
1203
0001
1000
0001
0010
0001
1000
0001
1320
,
0100
1000
0100
0001
0100
1000
0100
1032
0100
0010
0000
1000
0000
0010
0000
0013
,
0100
0010
1000
0001
0010
0100
0001
0100
1000
0010
1000
0100
0010
0001
0010
1001
,
0100
0010
0100
1001
0010
0100
0010
1001
0100
0010
0100
1001
0100
0010
0100
1001
,
0010
0100
0010
1001
0100
0010
0100
1001
0010
0100
0010
1001
0000
2000
0000
0000
,
0000
0000
0000
3200
0000
0000
0000
0320
0000
0000
0000
0032
0000
0203
0000
1300
,
0100
0010
0100
0010
0100
0001
0010
0100
1000
0001
0010
0100
1000
0010
0100
2000
,
0002
0003
0000
0000
0200
0300
0000
0000
0020
0030
0200
0300
0000
0000
3001
0000
0010
0000
0100
0000
0001
0000
0010
0000
0100
0000
1000
0000
0001
0000
0010
0000
,
0100
0000
1000
0000
0010
0000
0100
0000
0010
0000
0100
0000
0010
0000
0002
0000
0020
0030
0000
0000
0200
0300
0000
0000
2000
3000
0200
0300
0000
0000
1003
0000
,
0100
0010
0100
0010
0100
0001
0010
0100
1000
0001
0010
0100
1000
0010
0100
1000
,
0100
1000
0100
0012
0100
0010
0100
0013
0100
0010
0100
1002
0100
1000
0100
1003
,
0100
1000
0100
1020
0001
0100
0001
0130
0001
0100
0001
0210
0001
0010
0001
1300
,
0100
1000
0100
1000
0100
1000
0100
1000
0100
1000
0100
1000
0100
1000
0100
1000
,
0100
1000
0100
1000
0100
1000
0100
1000
0100
1000
0100
1000
0100
1000
0100
0022
,
0000
0000
0000
0000
,
0000
0000
0000
0000
0000
0000
0000
0000
0000
0033
1100
0000
0000
0000
0011
0000
0000
0000
1100
0000
0000
0000
0011
0000
0000
0000
0000
0000
0000
0000
0000
0000
0000
0000
0000
0000
0000
0000
0000
0000
0000
0000
0000
0000
0000
0000
0000
0000
,
0000
0000
0000
0000
0000
0110
0000
1001
0000
0110
0000
1001
0000
0000
0000
0000
0000
0000
0000
0000
0000
0000
0000
0000
,
0000
0000
0000
0000
0000
0101
0000
1010
0000
0101
0000
1010
0000
0000
0000
0000
0000
0110
0000
1001
0000
0110
0000
1001
,
0000
0000
0000
0000
0000
0011
0000
1100
0000
0011
0000
1100
0000
0000
0000
0000
0000
0000
0000
0000
0000
0000
0000
0000
,
0000
0000
0000
0000
0000
0001
0000
0000
0000
0000
0000
1000
0000
0000
0000
0000
0000
1100
0000
0011
0000
1100
0000
0011
,
0000
0000
0000
0000
0000
1001
0000
0110
0000
1001
0000
0110
0000
0000
0000
0000
0000
1010
0000
0101
0000
1010
0000
0101
,
0000
0000
0000
0000
0000
1010
0000
0101
0000
1010
0000
0101
0000
0000
0000
0001
0000
0000
0000
0010
0000
0000
0000
0100
,
0000
0000
0000
1000
0000
0000
0000
0100
0000
0000
0000
1100
0000
0010
0000
0100
0000
1000
0000
0100
0000
1000
0000
0011
,
0000
0100
0000
0010
0000
0001
0000
0010
0000
0001
0000
1100
0000
0010
0000
0100
0000
1000
0000
0100
0000
1000
0000
0011
,
0000
0100
0000
1000
0000
0100
0000
0010
0000
0001
0000
1100
0000
0010
0000
0001
0000
0010
0000
0001
0000
0010
0000
1100
,
0000
0001
0000
0010
0000
0001
0000
0010
0000
0001
0000
2200
0000
0000
0000
0000
0000
0000
0000
0000
0000
0300
0000
3220
,
0000
0000
0000
0000
0000
0000
0000
0000
0000
0000
0000
0000
0000
0000
0000
0300
0000
0232
0000
0000
0000
0000
0000
0000
,
0000
0000
0000
0000
,
0000
0000
0000
0000
,
0000
0000
0000
0000
0000
0000
0000
0000
0000
0000
0000
0000
0000
0000
0000
0000
0000
0000
0000
0000
0000
0000
0000
0303
;
